» » Enoch Light - Travel Now Pay Next Year/Young at Heart Cha Cha

Enoch Light - Travel Now Pay Next Year/Young at Heart Cha Cha flac album

Enoch Light - Travel Now Pay Next Year/Young at Heart Cha Cha flac album
  • Performer: Enoch Light
  • Title: Travel Now Pay Next Year/Young at Heart Cha Cha
  • Genre: Easy
  • Style: Exotica
  • MP3 size: 1790 mb
  • FLAC size 1397 mb
  • Formats DTS MP3 AUD FLAC TTA DXD

Travel Now, Pay Next Year Pleasure Cruise Cha Cha (Light-Davies) - 2:16 11. The Night Is Young Cha Cha (Rose-Kahal-Suesse) - 2:00 12. Charleston Cha Cha (Mack-Johnson) - 2:37 I Want to Be Happy Cha Cha's (1959) 13. I Want to Be Happy Cha Cha (Youmans-Caesar) - 2:33 1. Cha Cha" PERFORMER "Enoch Light" INDEX 01 00:00:00 TRACK 02 AUDIO TITLE "I Could Have Danced All Night Cha Cha" PERFORMER "Enoch Light" INDEX 00 02:51:14 INDEX 01 02:53:71 TRACK 03 AUDIO TITLE "Moon over Miami Cha Cha" PERFORMER "Enoch Light" INDEX 00 05:22:19 INDEX 01 05:25:01 TRACK 04 AUDIO TITLE "C'est.

Enoch Henry Light (18 August 1905, in Canton, Ohio – 31 July 1978, in Redding, Connecticut) was a classically trained violinist, danceband leader, and recording engineer. As the leader of various dance bands that recorded as early as March 1927 and continuing through at least 1940, Light and his band primarily worked in various hotels in New York. For a time in 1928 he also led a band in Paris. In the 1930s Light also studied conducting with the French conductor Maurice Frigara in Paris.

Enoch Light and The Light Brigade - The Night Is Young Cha Cha. album: Mega Hits For You. Travel Now, Play Next Year, Pleasure Cruise. album: Big Bold and Brassy Percussion in Brass + Pertinent Percussion Cha Cha's. album: Expensive Bling. Enoch Light And His Orchestra - Perhaps, Perhaps, Perhaps. album: Provocative Percussion.

fascinating dance album cha cha. Label. Command, king record co ltd. Catalog Number. 4trk, flipback sleeve, a. heek to cheek a. hat a difference a day made b. tranger in the night b. eart and soul, disc has surface noise, stains on cover, disc has scratches with noise.

Cha Cha Soul! (2003) - download mp3 or listen online. Pete Escovedo - La Cuna (Live) (08:55, 192Kb/s). Listen online and stay in a good mood. Org Album: Cha Cha Soul! (2003).

Redirected from Cha Cha Cha (EMF album)). Cha Cha Cha was the third and last studio album by English rock band EMF, released in 1995 under the EMI label. It was the first album the band released in three years, their previous album being their 1992 album Stigma.

Not Now. Ooh Cha Cha. Vegetarian/Vegan Restaurant. Closed now. About ooh cha cha. Our Story.

Girouette 1,2 cha cha cha. Прослушать Скачать 03:10. Bebo Valdez And His Orchestra. Прослушать Скачать 02:58. Tommy Dorsey & His Orchestra. Tea for Two Cha Cha. Прослушать Скачать 05:34. One Two Cha Cha Cha From "Shalimar". Прослушать Скачать 04:26. Прослушать Скачать 02:38. Прослушать Скачать 03:02.

Young at Heart (оригинал Frank Sinatra). Молод сердцем (перевод Алекс). Fairy tales can come true, it can happen to you. Сказки могут стать явью, это может случиться с тобой, If you're young at heart. Если ты молод сердцем. For it's hard, you will find, to be narrow of mind. Ты поймешь, что трудно смотреть на вещи узко, If you're young at heart. You can go to extremes with impossible schemes.

Credits:

Enoch Light - Leader, Piano, Primary Artist, Producer
Albums Related to Enoch Light - Travel Now Pay Next Year/Young at Heart Cha Cha
Contacts | Privacy Policy | DMCA
All rights reserved.
bmday.it © 2016-2019